[Torrent] Jackass Apresenta: Vovô Sem Vergonha (Jackass Presents: Bad Grandpa 2013) CamRip

160x600

Um senhor de 86 anos, Irving Zisman, está em uma jornada por toda a América com o seu neto de oito anos de idade, Billy. Ao longo do caminho, Irving irá fazer o jovem Billy conhecer pessoas, lugares e situações que darão um novo significado de como educamos as crianças. É um filme de comédia americano dirigido por Jeff Tremaine e escrito por Jeff, Johnny Knoxville e Spike Jonze. O filme será estrelado por Johnny Knoxville e Jackson Nicoll. Ele foi produzido pela MTV Films e distribuído pela Paramount Pictures.



Tamanho: 555.99 MiB (582998065 Bytes)
Complete Info:
[spoiler]Jackass Presents Bad Grandpa (2013) CamRip.flv

Format : Flash Video
File size : 556 MiB
Duration : 1h 36mn
Overall bit rate : 803 Kbps
Writing application : Encoded By
Tagging application : Yet Another Metadata Injector for FLV – Version 1.9

Video

Format : AVC
Format/Info : Advanced Video Codec
Format profile : High@L3.1
Format settings, CABAC : Yes
Format settings, ReFrames : 4 frames
Codec ID : 7
Duration : 1h 36mn
Bit rate : 700 Kbps
Width : 854 pixels
Height : 480 pixels
Display aspect ratio : 16:9
Frame rate mode : Constant
Frame rate : 29.970 fps
Color space : YUV
Chroma subsampling : 4:2:0
Bit depth : 8 bits
Scan type : Progressive
Bits/(Pixel*Frame) : 0.057
Stream size : 485 MiB (87%)
Writing library : x264 core 128 r2 198a7ea

Audio

Format : AAC
Format/Info : Advanced Audio Codec
Format profile : LC
Codec ID : 10
Duration : 1h 36mn
Bit rate : 94.4 Kbps
Channel(s) : 2 channels
Channel positions : Front: L R
Sampling rate : 44.1 KHz
Compression mode : Lossy
Delay relative to video : 44ms
Stream size : 69.5 MiB (13%)[/spoiler]


Clique aqui para baixar [Torrent MagNet]

Se aparecer alguma opção dizendo para INICIAR APLICATIVO ou PERMITIR por exemplo, elas são para que o Torrent possa ser iniciado. Mas lembre-se, você só pode baixar Torrents, com um Gerenciador de Torrents, e eu recomendo o Vuze mas você pode usar qualquer outro que desejar! 😀

Exemplo das Telas:






torrentads

cliqueparafazerodownload

160x600
  • Estevam

    Não estou encontrando a legenda :/ help

By WordPress